www.bstrong.ru

Снаряд

Палач Дамер / Dahmer [x264] [2002 / DVDRip] [Biography / Crime / Drama]

СКАЧАТЬ

Популярность:

Посмотрели: 70

Прошел проверку на вирусы:

Палач Дамер / Dahmer [x264] [2002 / DVDRip] [Biography / Crime / Drama] 5.5 3,621
Оригинальное название: Dahmer [x264]
Название: Палач Дамер
Год выхода: 2002
Тип: Страна: США / Blockbuster Films, DEJ Productions, Peninsula Films In
Жанр: Biography / Crime / Drama / Horror / Thriller
Режиссер: Дэвид Джейкобсон
Автор сценариев: David Birke, Дэвид Джейкобсон
В ролях: Джереми Реннер, Брюс Дэвисон, Мики Свенсон, Артел Каяру, Мэтт Ньютон, Дэвид Мэниз, Дэвид Мэниз, Дион Баско, Кейт Уильямсон, Шон Блейкмор
Продолжительность: 01:37:44
Язык: Русский
Перевод: Профессиональный (многоголосый, закадровый)
Размер: 1.37 GB
Описание:
О фильме: «The mind is a place of its own.»
Палач… Животное… Монстр… Ни одно из этих определений не способно точно охарактеризовать Джеффри Дамера, обвиненного в убийстве, расчленении и поедании тел более чем 15 молодых людей в Милуоки (штат Висконсин). Может ли подобный монстр считаться человеком?
Основанный на реальных фактах, этот фильм исследует истинную природу человека, пытается найти причины, способные заставить человека утратить все сдерживающие факторы и превратиться в нечто, чему нет названия.
Джеффри Лайонел Дамер (англ. Jeffrey Lionel Dahmer- 21 мая 1960 — 28 ноября 1994) — американский серийный убийца, жертвами которого стали 17 юношей и мужчин в период между 1978 и 1991 годами. Все преступления, кроме одного, были совершены в Милуоки с 1987 по 1991 год. Преступления Дамера отличала крайняя жестокость, трупы жертв он насиловал и употреблял в пищу. Суд признал Дамера вменяемым и приговорил его к 957 годам заключения. В 1994 году Дамер был убит сокамерником.
• Рейтинг КиноПоиск : 5.76/10 (301)
• IMBb awards : 3 nominations
Рецензия от I_avenged
«Я просто крайне злой человек, или это какой-то вид сатанинского влияния, или что? Я не знаю. У меня нет идей по этому поводу.»
Это не бездарный фильм, это шедевр
Лично меня он привлек тем, что показывается не тупо-слепо убийства, кровь, смерть, страх, а наоборот : Дэвид Джейкобсон как будто пытается понять Дамера, показать, что привело как такому течению событий, изобразить в конце концов реального человека с реальными проблемами.
Меня впечатлило то увиденное одиночество, психологические проблемы, а не больная мания, фильм снят о том, почему такое произошло, что толкнуло человека на столь ужасные поступки, а не сухое изображения убийств.
10 из 10
General
Unique ID : 252442913523136443526690828644059930920 (0xBDEABC9474B2FF3CA96C89A5C8336128)
Complete name : D:ВладPalach.Damer.2002.MVO.x264.DVDRip.mkv
Format : Matroska
File size : 1.37 GiB
Duration : 1h 37mn
Overall bit rate : 2 003 Kbps
Encoded date : UTC 2011-11-07 17:50:18
Writing application : mkvmerge v4.9.1 (Ich will) built on Jul 11 2011 23:53:15
Writing library : libebml v1.2.1 + libmatroska v1.1.1
Video
ID : 1
Format : AVC
Format/Info : Advanced Video Codec
Format profile : High@L5.1
Format settings, CABAC : Yes
Format settings, ReFrames : 6 frames
Codec ID : V_MPEG4/ISO/AVC
Duration : 1h 37mn
Bit rate : 1 554 Kbps
Width : 720 pixels
Height : 400 pixels
Display aspect ratio : 16:9
Frame rate : 25.000 fps
Color space : YUV
Chroma subsampling : 4:2:0
Bit depth : 8 bits
Scan type : Progressive
Bits/(Pixel*Frame) : 0.216
Stream size : 1.03 GiB (76%)
Writing library : x264 core 116 r2074 2641b9e
Encoding settings : cabac=1 / ref=7 / deblock=1:-3:-3 / analyse=0x3:0x133 / me=umh / subme=7 / psy=1 / psy_rd=1.00:0.15 / mixed_ref=1 / me_range=16 / chroma_me=1 / trellis=2 / 8x8dct=1 / cqm=0 / deadzone=21,11 / fast_pskip=1 / chroma_qp_offset=-3 / threads=3 / sliced_threads=0 / nr=0 / decimate=1 / interlaced=0 / bluray_compat=0 / constrained_intra=0 / bframes=4 / b_pyramid=1 / b_adapt=2 / b_bias=0 / direct=3 / weightb=1 / open_gop=0 / weightp=2 / keyint=250 / keyint_min=25 / scenecut=40 / intra_refresh=0 / rc_lookahead=40 / rc=2pass / mbtree=1 / bitrate=1554 / ratetol=1.0 / qcomp=0.60 / qpmin=0 / qpmax=69 / qpstep=4 / cplxblur=20.0 / qblur=0.5 / ip_ratio=1.40 / aq=1:1.00
Color primaries : BT.709-5, BT.1361, IEC 61966-2-4, SMPTE RP177
Transfer characteristics : BT.709-5, BT.1361
Matrix coefficients : BT.709-5, BT.1361, IEC 61966-2-4 709, SMPTE RP177
Audio
ID : 2
Format : AC-3
Format/Info : Audio Coding 3
Mode extension : CM (complete main)
Codec ID : A_AC3
Duration : 1h 37mn
Bit rate mode : Constant
Bit rate : 448 Kbps
Channel(s) : 6 channels
Channel positions : Front: L C R, Side: L R, LFE
Sampling rate : 48.0 KHz
Bit depth : 16 bits
Compression mode : Lossy
Stream size : 313 MiB (22%)
Файл Качество: DVDRip
Видео: AVC/x264, 720 x 400, 25,000 fps, 1 554 Kbps (0.216 Bits/Pixel*Frame)
Звук: AC3, 48.0 KHz, 448 Kbps, 6 channels (Front: L C R, Side: L R, LFE)

Вместе с этим искали

  1. Шмидт О. - Арбат. Путеводитель [1993, PDF, RUS]
  2. Скоробогатько Н.В. - Рассказы о святом Александре Невском [2013, PDF, RUS]
  3. REAPER[2009, Запись звука]
  4. Ironman Hawaii 2009 [2009 г., триатлон, TVRip]
  5. Mirror Edge [Лицензия][2009]

www.bstrong.ru © 2011-2016, Снаряд